<?xml version="1.0" standalone="no"?>
<!DOCTYPE svg PUBLIC "-//W3C//DTD SVG 1.1//EN" "http://www.w3.org/Graphics/SVG/1.1/DTD/svg11.dtd">
<svg xmlns="http://www.w3.org/2000/svg">
<metadata>Copyright (C) 2025 by original authors @ fontello.com</metadata>
<defs>
<font id="fontello" horiz-adv-x="1000" >
<font-face font-family="fontello" font-weight="400" font-stretch="normal" units-per-em="1000" ascent="850" descent="-150" />
<missing-glyph horiz-adv-x="1000" />
<glyph glyph-name="arrow-triangle-left" unicode="&#xe800;" d="M534-9l-415 342 415 342v-684z m41-120c9 0 18 8 18 20v884c0 12-9 24-18 24-3 0-6 0-10-4l-534-442c-12-8-12-28 0-40l534-438c3-4 7-4 10-4z" horiz-adv-x="643" />

<glyph glyph-name="wpc-miscellaneous" unicode="&#xe801;" d="M775 400h-375c-25 0-50-25-50-50s25-50 50-50h375c25 0 50 19 50 50 0 25-19 50-50 50z m0 206h-375c-25 0-50-25-50-50 0-25 25-50 50-50h375c25 0 50 19 50 50 0 25-19 50-50 50z m0-406h-375c-25 0-50-25-50-50 0-25 25-50 50-50h375c25 0 50 19 50 50 0 25-19 50-50 50z m50 650h-644c-100 0-181-81-181-181v-638c0-100 81-181 181-181h638c100 0 181 81 181 175v644c0 100-81 181-175 181z m88-825c0-50-38-88-88-88h-644c-50 0-87 38-87 88v644c0 50 37 87 87 87h644c50 0 88-37 88-87v-644z m-669 463c37 0 62 25 62 62s-25 63-62 63-63-25-63-63 32-62 63-62z m0-200c37 0 62 25 62 62s-25 63-62 63-63-25-63-63 32-62 63-62z m0-200c37 0 62 25 62 62s-25 63-62 63-63-25-63-63 32-62 63-62z" horiz-adv-x="1000" />

<glyph glyph-name="wpcp-right-open-1" unicode="&#xe802;" d="M618 361l-414-415q-11-10-25-10t-25 10l-93 93q-11 11-11 25t11 25l296 297-296 296q-11 11-11 25t11 25l93 93q10 11 25 11t25-11l414-414q10-11 10-25t-10-25z" horiz-adv-x="714.3" />

<glyph glyph-name="wpc-navigation" unicode="&#xe803;" d="M394 688c-25 18-63 18-81-7l-294-293c-25-25-25-57 0-82l294-287c18-19 56-19 75 0 25 25 25 56 0 81l-250 250 256 256c25 25 25 57 0 82z m587-300l-293 293c-25 25-57 25-82 0-18-18-18-56 7-75l250-256-257-256c-25-25-25-56 0-81 13-13 50-26 75 0l294 293c31 25 31 63 6 82z" horiz-adv-x="1000" />

<glyph glyph-name="right-open-big" unicode="&#xe804;" d="M13-20l358 370-358 372q-26 26 0 48 26 26 48 0l392-394q24-26 0-50l-392-394q-22-26-48 0-26 22 0 48z" horiz-adv-x="465" />

<glyph glyph-name="wpc-lightbox-general" unicode="&#xe805;" d="M569-44c-6-6-19-19-25-19-25-12-56-12-81 0s-44 38-44 63c0 13-13 25-25 31-19 0-31 7-44 13-12 6-25 6-37-6-25-19-50-19-82-13-25 13-43 31-50 63-6 25-6 56 13 81 6 12 12 25 6 37-12 7-19 19-19 32-6 12-18 25-31 25-25 6-50 25-62 50s-13 56 0 81c12 19 37 37 62 44 13 0 25 12 31 25 0 12 7 25 13 37 6 13 6 25-6 38-13 18-19 50-13 81 13 25 31 50 56 56 32 6 63 0 82-12 12-7 25-13 37-7 19 7 25 13 38 13 12 6 25 12 25 31 6 25 25 50 50 63 25 12 56 12 81 0 25-13 44-38 44-63 0-12 12-25 25-31 12 0 25-6 37-13 13-6 25-6 38 0 25 19 50 19 75 13 25-6 50-31 56-56 6-25 6-57-13-75-6-13-6-25 0-38 7-12 13-25 13-37 6-13 19-25 31-25 19-7 38-13 56-32 13-18 19-37 19-56 0-19-6-44-19-56 0-6-6-6-12-13-19-12-19-37-6-50 12-12 37-18 50-6 6 6 12 13 18 19 32 31 44 69 44 106 0 38-12 75-37 106-19 25-44 44-75 50 0 0 0 7 0 7 18 37 25 81 6 125-19 50-63 87-106 100-44 12-88 12-125-7 0 0 0 0-7 0-12 44-43 75-81 100-50 25-100 25-150 0-37-18-62-56-81-100 0 0 0 0-6 0-32 25-82 32-125 13-50-13-94-50-107-106-12-44-12-88 13-125 0 0 0-7 0-7-44-12-81-43-100-81-25-44-25-100 0-150 19-37 56-69 100-81 0 0 0-6 0-6-19-38-25-88-13-125 19-50 57-88 107-107 43-12 87-12 125 13 0 0 6 0 6 0 12-44 44-75 81-100 25-13 50-19 75-19 25 0 50 6 75 19 19 12 38 25 50 43 13 19 13 38-6 50-19 13-38 13-50-6z m150 344c0 13 6 31 6 44 0 56-25 119-69 162-37 44-100 69-156 69-25 0-50-6-75-12-12-7-19-19-19-32s0-25 13-37l56-56c19-19 19-50 0-69-19-19-50-19-69 0l-56 62c-12 7-25 13-37 7-13 0-25-13-25-25-7-19-13-38-13-63 0-62 25-119 69-156 44-44 100-69 156-69 13 0 31 0 44 6l237-237c32-32 63-44 94-44 31 0 63 12 88 37 25 25 37 57 37 88 0 31-12 63-37 88l-244 237z m-325-56c-19 19-31 44-38 75 44-44 125-38 169 6 50 50 50 125 0 175l0 0c31-6 63-19 88-44 31-31 43-68 43-106 0-37-12-75-43-106-63-56-163-56-219 0z m512-300c-18-19-50-19-68 0l-213 219c13 6 25 18 38 31 12 12 18 25 31 37l219-218c12-13 12-26 12-38 0-13-6-25-19-31z" horiz-adv-x="1000" />

<glyph glyph-name="wpcp-right-open-outline" unicode="&#xe806;" d="M156-66q-63 0-110 46t-46 111 46 110l150 150-150 150q-46 46-46 110 0 65 46 111 44 44 110 44t110-44l372-371-372-372q-45-45-110-45z m0 729q-21 0-37-16t-15-36q0-20 16-37l223-223-223-224q-16-16-16-36 0-22 16-38 15-15 36-15t37 15l297 298-297 297q-15 15-37 15z" horiz-adv-x="638" />

<glyph glyph-name="wpcp-right" unicode="&#xe807;" d="M0 347q0 26 18 43t43 17h642l-242 244q-19 18-19 44t19 42q17 19 42 19t44-19l390-390-390-391q-20-18-44-18t-42 18-19 44 19 43l242 242h-642q-25 0-43 18t-18 44z" horiz-adv-x="938" />

<glyph glyph-name="block" unicode="&#xe808;" d="M1285-150h-1285v1000h1285v-1000z m-1140 145h995v710h-995v-710z m872 336l-149-149c-11-11-28-11-38 0l-25 25c-10 10-10 27 0 37l106 106-106 106c-10 10-10 27 0 37l25 25c10 11 27 11 37 0l150-149c11-11 11-27 0-38z m-749 38l150 149c10 11 27 11 37 0l25-24c10-11 10-27 0-38l-106-106 106-106c10-10 10-27 0-37l-25-25c-10-11-27-11-37 0l-150 149c-10 11-10 27 0 38z" horiz-adv-x="1285" />

<glyph glyph-name="wpc-image-and-thumbnail" unicode="&#xe80a;" d="M913 850h-632c-50 0-87-37-87-87l0-638c0-44 44-81 87-81h632c50 0 87 37 87 87v632c0 50-37 87-87 87z m-632-81l0 0 632-6v-300l-50 56c-7 6-19 12-25 12-13 0-19-6-25-12l-238-263-106 119c-6 6-13 13-25 13-13 0-19-7-25-13l-138-150 0 544 0 0z m175-638l-150 0 138 157 81-88-69-69 0 0z m113 0l6 13 50 56 0 0 206 231 75-87v-206l-337-7z m-419 7v125h-119c-18 0-31-19-31-32v-350c0-19 13-31 31-31h344c19 0 31 19 31 31v119 6h-125c-68 0-131 57-131 132z m481 325c57 0 100 43 100 100 0 56-43 100-100 100-56 0-100-44-100-100 0-50 44-100 100-100z m0 143c25 0 38-18 38-43 0-25-19-38-38-38-25 0-43 19-43 38 6 25 25 43 43 43z" horiz-adv-x="1000" />

<glyph glyph-name="wpc-lightbox-icon" unicode="&#xe80b;" d="M975-6l-156 156c125 181 100 419-50 575-88 88-200 131-319 131s-231-50-319-131c-175-175-175-462 0-637 88-88 200-132 319-132 88 0 169 25 244 75l156-156c19-19 38-25 63-25s43 6 62 25c19 19 25 37 25 62s-6 38-25 57z m-281 162c-69-68-156-100-250-100s-181 38-250 100c-69 69-100 157-100 250 0 94 37 182 100 250 69 69 156 100 250 100s181-37 250-100c137-137 137-362 0-500z m-88 300h-106v107c0 25-25 50-50 50s-50-25-50-50v-107h-106c-25 0-50-25-50-50s25-50 50-50h106v-106c0-25 25-50 50-50s50 25 50 50v106h106c25 0 50 25 50 50s-25 50-50 50z" horiz-adv-x="1000" />

<glyph glyph-name="wpc-lightbox-toolbar" unicode="&#xe80f;" d="M875 806h-750c-69 0-125-56-125-125v-12c0-69 56-125 125-125h750c69 0 125 56 125 125v19c0 68-56 118-125 118z m-750-168c-19 0-31 12-31 31v19c0 18 12 37 31 37h563l-7-12c-6-13-12-19-12-32 0-12 6-25 12-31l13-12h-569z m750-157h-750c-69 0-125-56-125-125v-12c0-69 56-125 125-125h750c69 0 125 56 125 125v12c0 69-56 125-125 125z m-787-125c0 19 12 32 31 32h756c19 0 31-13 31-32v-12c0-19-12-31-31-31h-750c-19 0-31 12-31 31v12z m787-206h-750c-69 0-125-56-125-125v-12c0-69 56-126 125-126h750c69 0 125 57 125 126v12c0 69-56 125-125 125z m-787-119c0 19 12 32 31 32h756c19 0 31-13 31-32v-12c0-19-12-32-31-32h-750c-19 0-31 13-31 32v12z" horiz-adv-x="1000" />

<glyph glyph-name="lightbox-animation" unicode="&#xe810;" d="M0-88c0-18 6-31 19-43 12-13 31-19 44-19 18 0 31 6 43 19l282 281c43-31 93-50 143-62l-125-126c-18-18-25-37-18-62 6-25 25-44 50-50 25-6 43 0 62 19l219 219c87 25 162 81 212 156 50 75 75 162 69 256-6 88-50 175-112 238-63 62-150 106-238 112-94 6-181-19-256-69-75-50-131-125-156-212l-219-219c-19-19-25-44-19-62 6-25 25-38 44-44 25-6 44 0 62 19l125 125c13-50 32-100 63-144l-281-282c-7-12-13-31-13-50l0 0z m613 807c68 0 131-25 181-75 50-50 75-113 75-181s-25-132-75-182c-50-50-113-75-181-75s-132 25-182 75c-50 50-75 113-75 182s25 131 75 181 113 75 182 75z" horiz-adv-x="1000" />

<glyph glyph-name="wpc-pagination" unicode="&#xe811;" d="M956 581h-906c-31 0-50 25-50 50 0 25 19 44 50 50h900c31 0 50-18 50-50 0-31-19-50-44-50z m-668-231c0-76-62-137-138-137-76 0-137 61-137 137 0 76 61 138 137 138 76 0 138-62 138-138z m250-106c58 0 106 47 106 106 0 59-48 106-106 106-59 0-107-47-107-106 0-59 48-106 107-106z m343 0c59 0 107 47 107 106 0 59-48 106-107 106-58 0-106-47-106-106 0-59 48-106 106-106z m69-125h-900c-31 0-50-19-50-50 0-25 19-50 50-50h906c25 0 50 19 50 50-6 31-25 50-56 50z" horiz-adv-x="1000" />

<glyph glyph-name="wpcp-left-open-2" unicode="&#xe814;" d="M654 682l-297-296 297-297q10-10 10-25t-10-25l-93-93q-11-10-25-10t-25 10l-414 415q-11 10-11 25t11 25l414 414q10 11 25 11t25-11l93-93q10-10 10-25t-10-25z" horiz-adv-x="714.3" />

<glyph glyph-name="wpcp-right-open-3" unicode="&#xe816;" d="M31 684q30 31 74 31t74-31l335-334-335-334q-31-31-74-31t-74 31-31 74 31 74l188 186-188 186q-31 32-31 74t31 74z" horiz-adv-x="514" />

<glyph glyph-name="arrow-triangle-right" unicode="&#xe817;" d="M109 709l415-342-415-342v684z m-41 120c-9 0-19-8-19-20v-884c0-12 10-24 19-24 3 0 6 0 10 4l533 442c13 8 13 28 0 40l-533 438c-4 4-7 4-10 4z" horiz-adv-x="643" />

<glyph glyph-name="wpcp-left" unicode="&#xe818;" d="M0 353l390 391q19 18 44 18 25 0 43-18t18-44-18-43l-243-243h642q25 0 43-18t18-43-18-43-43-18h-642l243-243q18-18 18-44t-18-43-43-18-44 18z" horiz-adv-x="938" />

<glyph glyph-name="delete" unicode="&#xe819;" d="M756 488h-506a29 29 0 0 0-31 31 29 29 0 0 0 31 31h506a29 29 0 0 0 32-31 29 29 0 0 0-32-31z m-112-450h-281c-25 0-44 6-63 25s-25 37-25 62v394a29 29 0 0 0 31 31 29 29 0 0 0 32-31v-394c0-6 0-12 6-19s12-6 19-6h281c6 0 12 0 19 6s6 13 6 19v394a29 29 0 0 0 31 31 29 29 0 0 0 31-31v-394c0-25-6-44-25-62s-37-25-62-25z m-31 450a29 29 0 0 0-32 31v56c0 6 0 13-6 19 0 6-6 6-12 6h-119c-6 0-13 0-13-6s-6-13-6-19v-56a29 29 0 0 0-31-31 29 29 0 0 0-31 31v56c0 25 6 44 25 63s37 25 56 25h119c25 0 43-7 62-25s25-38 25-63v-56c-6-19-19-31-37-31z m-169-313a29 29 0 0 0-31 31v175c0 13 18 32 31 32s31-13 31-32v-168c0-19-12-38-31-38z m119 0a29 29 0 0 0-32 31v175c0 13 13 32 32 32a29 29 0 0 0 31-32v-168c0-19-19-38-31-38z" horiz-adv-x="1000" />

<glyph glyph-name="edit" unicode="&#xe81a;" d="M513 620c20 11 45 14 68 8a92 92 0 0 0 27-13l27-21 2-1 26-21a92 92 0 0 0 19-23c12-21 15-45 9-68a92 92 0 0 0-14-27l-20-27-213-273-1-2c-10-13-18-22-27-30-8-7-17-13-26-17-11-6-23-8-39-12l-2-1-64-16-14-3c-5 0-12-1-21 2a45 45 0 0 0-24 19c-5 7-6 15-7 20 0 4 0 9 0 14l0 66v2c0 16 0 29 2 41 2 10 6 20 10 29 6 11 13 21 23 33l2 2 212 273 22 26a92 92 0 0 0 23 20z m52-50a30 30 0 0 1-23-3c-1 0-3-2-8-7a508 508 0 0 1-19-24l94-73 19 24c4 6 5 8 5 10a30 30 0 0 1-3 22c0 1-2 4-7 8s-13 11-24 20l-25 18c-5 4-8 5-9 5z m8-155l-95 74-175-224-18-26a60 60 0 0 1-5-14c-1-6-1-11-1-31l0-57 55 13 30 9a60 60 0 0 1 13 8c4 4 8 8 20 24l176 224z m-95-316a30 30 0 0 0 30 30h209a30 30 0 0 0 30-30 30 30 0 0 0-30-30h-209a30 30 0 0 0-30 30z" horiz-adv-x="1000" />

<glyph glyph-name="wpcp-left-open-4" unicode="&#xe820;" d="M481 684q32-31 32-74t-32-74l-186-186 186-186q32-31 32-74t-32-74-73-31-74 31l-334 334 334 334q30 31 74 31t73-31z" horiz-adv-x="513" />

<glyph glyph-name="wpcp-left-open-outline" unicode="&#xe821;" d="M638 91q0-64-47-111t-110-46q-65 0-110 45l-371 372 371 371q44 44 111 44t111-44q45-45 45-111 0-65-45-110l-150-150 150-150q45-45 45-110z m-490 260l297-298q15-15 37-15t37 15 15 38q0 21-15 36l-224 224 224 223q15 15 15 37 0 22-15 37t-37 15-37-15z" horiz-adv-x="638" />

<glyph glyph-name="eft-open-big" unicode="&#xe822;" d="M452-20q26-26 0-48-26-26-48 0l-392 394q-24 24 0 50l392 394q22 26 48 0 26-22 0-48l-358-372z" horiz-adv-x="465" />

<glyph glyph-name="external_link" unicode="&#xe828;" d="M469-150h-299c-51 0-93 16-123 46-31 31-47 73-47 124 0 217 0 413 0 599 0 51 16 93 47 123 30 30 73 46 123 46h200c24 0 44-7 57-21 12-12 19-28 19-48-1-41-30-68-75-68h-137-63c-27 0-34-7-34-34v-596c0-27 7-34 34-34h298c0 0 198 0 298 0 27 0 34 7 34 35 0 32 0 65 0 97 0 34 0 68 0 102 0 45 27 75 68 75h0c42 0 69-29 69-74v-19c0-61 0-125 0-187 0-48-16-89-47-120-30-30-72-46-120-46-40 0-79 0-118 0h-184v0z m-36 370c-23 0-46 15-56 38-14 28-8 59 15 82 28 29 58 58 86 86l30 30 97 97c52 51 104 103 156 155 1 1 2 2 3 3-32 1-100 1-138 1-22 0-40 7-53 21-12 12-19 29-19 49 1 41 29 68 72 68 52 0 103 0 155 0 52 0 101 0 149 0 42 0 70-27 70-69 0-105 0-208 0-308 0-40-28-69-69-69-40 0-68 28-68 69 0 20 0 52-1 83 0 22 0 44 0 59-2-2-3-3-4-5-30-30-60-60-91-90-88-89-180-181-270-272-15-13-32-23-51-27-4-1-8-1-13-1z" horiz-adv-x="1000" />

<glyph glyph-name="tab_basic-settings" unicode="&#xe829;" d="M919-150h-781c-75 0-138 62-138 137v726c0 75 63 137 138 137h725c75 0 137-62 137-137v-763c0-25 0-50-19-69-12-19-37-31-62-31z m-781 913c-25 0-50-25-50-50v-726c0-25 25-50 50-50h775 0v776c0 25-25 50-50 50h-725z m637-182h-56c-19 44-69 75-119 75s-100-31-119-75h-256c-31 0-56-25-56-56s25-56 56-56h256c19-50 63-81 119-81s100 31 119 75h56c31 0 56 25 56 56s-25 62-56 62z m-550-456h56c19-44 69-75 119-75s100 31 119 75h256c31 0 56 25 56 56s-25 57-56 57h-256c-19 50-63 81-119 81s-100-31-119-81h-56c-31 0-56-25-56-57s25-56 56-56z" horiz-adv-x="1000" />

<glyph glyph-name="tab_asset-control" unicode="&#xe82a;" d="M956 269h-18l18 19c19 18 19 43 0 62l-93 94c-7 6-19 12-32 12s-25 0-31-12l-19-19v19c0 19-12 37-31 44v231c6 131-331 131-375 131s-375 0-375-137v-732c0-131 338-137 375-137s19 0 31 0c13 0 19 0 32 12 6 6 12 19 12 31 0 25-19 44-44 44-12 0-18 0-31 0h0c-181 0-281 38-294 50v394s7 0 13 0h12c7 0 19-6 25-12h0c13 0 25-7 38-13h12c7 0 19 0 32 0h12c13 0 19 0 38 0 12 0 25 0 37 0h38s31 0 43 0 13 0 25 0c0 0 0-12 0-19 0-12 0-25 13-31l19-19h-19c-25 0-44-18-44-43v-50c-62 0-125 6-194 18 0 0-6 0-12 0-19 0-38-12-44-31 0-25 13-44 31-50 69-12 144-19 213-19 0-18 19-31 44-31h18l-18-19c-19-18-19-43 0-62l93-94c7-6 19-13 32-13s25 0 31 13l19 19v-19c0-25 18-44 43-44h125c25 0 44 19 44 44v19l19-19c6-6 19-13 31-13s25 0 31 13l94 94c19 19 19 44 0 62l-19 19h19c25 0 44 19 44 44v125c0 25-19 44-44 44z m-581 156c-181 0-281 38-294 50v156s7 0 13 0h12c7-6 19-6 25-12h0c13 0 25-6 38-13h50c0-6 19-12 37-12 13 0 25 0 38 0h50c12 0 44 0 44 0 75 0 143 6 212 19 25 0 38 31 31 50 0 18-25 31-43 31s0 0-7 0c-62-13-131-19-193-19h-7c-18 0-31 0-50 0-137 0-218 31-243 50 25 19 125 50 287 50s281-37 294-50v-231s-50 0-50 0c-25 0-44-19-44-44v-19l-19 19c-6 6-18 13-31 13s-19 0-31-13l-13-12c-37 0-75 0-112 0z m550-287h-37c-13 0-25-13-32-25 0-13-6-19-12-32-6-12 0-25 0-37l31-31-50-51-31 32c-13 6-25 12-38 0-12 0-18-13-31-13-12 0-25-12-25-31v-38h-62v38c0 12-7 25-19 31-13 0-19 6-31 13-13 6-25 0-38 0l-31-32-50 51 31 31c13 12 13 25 0 37 0 13-12 19-12 32 0 12-19 25-32 25h-37v62h37c13 0 25 13 32 19 0 12 6 19 12 31 0 13 0 25 0 38l-31 31 50 50 31-31c13-13 25-13 38 0 12 0 18 12 31 12 12 0 19 19 19 31v38h62v-38c0-12 13-25 25-31 13 0 19-6 31-12 13 0 25 0 38 0l31 31 50-50-31-31c-13-7-13-25 0-38 0-12 6-19 12-31 0-13 13-19 32-19h37v-62z m-119 31c0-69-56-125-125-125s-125 56-125 125 57 125 125 125 125-56 125-125z" horiz-adv-x="1000" />

<glyph glyph-name="tab_post-meta" unicode="&#xe82b;" d="M413 231h-182c-25 0-43 19-43 44s18 44 43 44h182c25 0 43-19 43-44s-18-44-43-44z m337 182h-512c-25 0-44 18-44 43s19 44 44 44h518c25 0 44-19 44-44s-19-43-44-43z m0 175h-512c-25 0-44 18-44 43s19 44 44 44h518c25 0 44-19 44-44s-19-43-44-43z m219-538l-213 213c0 0-12 6-18 12l-157 44c-12 0-31 0-37-13-13-12-13-25-13-37l44-156c0-7 0-13 13-19l212-213c25-25 50-31 81-31s63 12 82 31c43 44 43 119 0 169z m-344 175l75-25 144-144-56-56-144 144-25 81z m288-288c-13-12-38-12-57 0h-6c0 7 56 63 56 63h7c12-25 12-50 0-63z m-275-93h-482c-87 0-162 75-162 162v688c6 87 75 156 162 156h688c87 0 162-75 162-162v-482c0-25-18-43-43-43s-44 18-44 43v488c0 37-31 75-75 75h-688c-37 0-75-31-75-75v-688c0-37 32-75 75-75h482c25 0 43-19 43-44s-18-43-43-43z" horiz-adv-x="1000" />

<glyph glyph-name="tab_item-style" unicode="&#xe82c;" d="M988 6l-232 294-87 113-56 75c-19 25-44 37-69 43-6 0-19 0-31 0 0 13 0 19 0 32 0 12 0 31 0 43 0 19 0 32-13 50 0 13-12 25-19 38-6 6-12 19-25 25-56 62-250 131-325 131s-50-19-56-31c-6-13-12-31 13-63 18-18 31-43 37-62h-25s-6 0-12 0c0 0 0 0 0 0-50 0-88-44-88-94v-650c0-56 44-100 100-100h550c56 0 100 44 100 100v75l138-106c12-13 25-13 37-13s31 6 50 19c25 25 25 62 0 88z m-632 694c19-12 38-19 50-31 13-13 19-25 25-38 0 0 0-12 0-18 0-19 0-38 0-57 0-18-12-43-31-56-19-19-37-31-56-31-6 0-19 0-25 0-31 0-63 12-88 37-12 13-12 32-12 75 0 13 0 25 0 38 0 25 0 56-13 87 0 19-12 44-31 63 50-13 125-38 175-63z m313-750c0-6 0-13-13-13h-556c-6 0-12 0-12 13v650c0 6 0 13 12 13h44c0-13 0-25 0-38 0-50 0-94 31-131 38-38 88-56 138-56s6 0 12 0c13 0 19 0 31 0 0-13 0-19 7-32 6-25 25-50 50-68l256-200v-138z m-125 663s0 0 0 0h112c7 0 13 0 13-13v-137l87-113v250c0 56-43 100-100 100h-137c0-6 6-19 12-25 7-19 13-37 13-56z" horiz-adv-x="1000" />

<glyph glyph-name="tab_typography" unicode="&#xe82d;" d="M906 6h-62l-269 763c0 0 0 12-12 12 0 0-13 0-19 0h-94c-6 0-12 0-19 0 0 0-6-6-12-12l-263-763h-62c-6 0-19 0-25-6 0 0-6-13-6-25v-31c0-7 0-19 6-25 0 0 12-7 25-7h250c6 0 19 0 25 7 0 0 6 12 6 25v31c0 6 0 19-6 25 0 0-13 6-25 6h-69l63 188h318l63-188h-69c-6 0-19 0-25-6 0 0-6-13-6-25v-31c0-7 0-19 6-25 0 0 13-7 25-7h250c6 0 19 0 25 7 0 0 6 12 6 25v31c0 6 0 19-6 25 0 0-12 6-25 6z m-531 282l125 368 125-368h-256z" horiz-adv-x="1000" />

<glyph glyph-name="tab_mischellaneous" unicode="&#xe82e;" d="M775 400h-375c-25 0-50-25-50-50s25-50 50-50h375c25 0 50 19 50 50s-19 50-50 50z m0 206h-375c-25 0-50-25-50-50s25-50 50-50h375c25 0 50 19 50 50s-19 50-50 50z m0-406h-375c-25 0-50-25-50-50s25-50 50-50h375c25 0 50 19 50 50s-19 50-50 50z m-531 288c37 0 62 25 62 62s-25 63-62 63-63-25-63-63 32-62 63-62z m0-200c37 0 62 25 62 62s-25 63-62 63-63-25-63-63 32-62 63-62z m0-200c37 0 62 25 62 62s-25 63-62 63-63-25-63-63 32-62 63-62z m619-238h-725c-75 0-138 62-138 137v726c0 75 63 137 138 137h725c75 0 137-62 137-137v-726c0-75-62-137-137-137z m-725 913c-25 0-50-25-50-50v-726c0-25 25-50 50-50h725c25 0 50 25 50 50v726c0 25-25 50-50 50h-725z" horiz-adv-x="1000" />

<glyph glyph-name="tab_image-settings" unicode="&#xe82f;" d="M338 313h0c-25 25-57 25-82 0l-100-94c-12-13-18-25-18-44v-44c0-31 25-56 56-56h612c32 0 57 25 57 56v144c0 13 0 31-19 38l-169 168c-25 25-56 25-81 0l-181-181c-25-25-57-25-82 0z m-100 93c56 0 100 44 100 100s-44 100-100 100-100-43-100-100 43-100 100-100z m625-469h-725c-75 0-138 63-138 138v550c0 75 63 138 138 138h725c75 0 137-63 137-138v-544c0-75-62-137-137-137z m-725 738c-25 0-50-25-50-50v-544c0-25 25-50 50-50h725c25 0 50 25 50 50v544c0 25-25 50-50 50h-725z" horiz-adv-x="1000" />

<glyph glyph-name="tab_navigation" unicode="&#xe830;" d="M138 381l256 257c25 25 25 56 0 81-25 19-63 19-81-6l-294-294c-25-25-25-56 0-81l294-288c18-19 56-19 75 0 25 25 25 56 0 81l-250 250z m843 38l-293 294c-25 25-57 25-82 0-18-19-18-57 7-75l250-257-257-256c-25-25-25-56 0-81 13-13 50-25 75 0l294 294c31 25 31 62 0 81z" horiz-adv-x="1000" />

<glyph glyph-name="tab_product-info" unicode="&#xe831;" d="M700 150c25 0 50-25 50-50v-50c0-25-25-50-50-50s-50 25-50 50v50c0 25 25 50 50 50z m0 50c25 0 50 25 50 50s-25 50-50 50-50-25-50-50 25-50 50-50z m0 250c-169 0-300-131-300-300s131-300 300-300 300 131 300 300-131 300-300 300z m-200-300c0 113 88 200 200 200s200-87 200-200-87-200-200-200-200 88-200 200z m-106-300h-256c-75 0-138 62-138 137v726c0 75 63 137 138 137h525c75 0 137-62 137-137v-169c0-25-19-44-44-44s-43 19-43 44v169c0 25-25 50-50 50h-525c-25 0-50-25-50-50v-726c0-25 25-50 50-50h256c25 0 44-18 44-43s-19-44-44-44z m-63 381h-112c-25 0-44 19-44 44s19 44 44 44h112c25 0 44-19 44-44s-19-44-44-44z m113 182h-225c-25 0-44 18-44 43s19 44 44 44h225c25 0 44-19 44-44s-19-43-44-43z m131 175h-356c-25 0-44 18-44 43s19 44 44 44h350c25 0 44-19 44-44s-19-43-44-43z" horiz-adv-x="1000" />

<glyph glyph-name="tab_pagination" unicode="&#xe832;" d="M713 244c-57 0-107 50-107 106s50 106 107 106 106-50 106-106-50-106-106-106z m0 150c-25 0-44-19-44-44s19-44 44-44 43 19 43 44-18 44-43 44z m-369-200c87 0 156 69 156 156s-69 156-156 156-156-68-156-156 68-156 156-156z m531-219h-750c-69 0-125 56-125 125v500c0 69 56 125 125 125h750c69 0 125-56 125-125v-500c0-69-56-125-125-125z m-750 656c-19 0-31-12-31-31v-500c0-19 12-31 31-31h750c19 0 31 12 31 31v500c0 19-12 31-31 31h-750z" horiz-adv-x="1000" />

<glyph glyph-name="tab_style-settings" unicode="&#xe833;" d="M750 388l219 262h0c44 50 37 131-19 175-50 44-131 38-175-19h0s-212-262-212-262c-13-19-13-44 0-56 18-13 43-13 56 0l212 262c19 19 44 19 63 0 19-19 19-44 0-62l-219-263c-12-19-12-44 0-56 6 0 19-6 25-6 13 0 25 0 31 12z m-125-13c-31 38-75 63-125 69-50 0-100-13-137-44-50-44-69-94-88-150-12-31-19-62-44-100-12-31-12-62 0-94 19-31 57-56 100-56 138 0 338 100 332 250 0 44-13 88-44 119z m-231-244c-19 0-31 13-44 25-6 13-6 25 0 38 6 12 13 31 19 44 6 25 12 43 37 62 19 13 38 19 57 19 18 0 37-13 56-31 12-13 19-32 19-50 0-63-82-107-144-107z m469-281h-725c-75 0-138 62-138 137v726c0 75 63 137 138 137h456c25 0 44-19 44-44s-19-43-44-43h-456c-32 0-50-25-50-50v-726c0-31 25-50 50-50h725c31 0 50 25 50 50v419c0 25 18 44 43 44s44-19 44-44v-419c0-75-62-137-137-137z" horiz-adv-x="1000" />

<glyph glyph-name="image" unicode="&#xe844;" d="M0 769v-838c0-44 46-81 100-81h1031c54 0 100 37 100 81v838c0 44-46 81-100 81h-1031c-54 0-100-37-100-81z m1092-850h-953c-31 0-47 18-47 37v782c0 25 23 37 47 37h961c31 0 46-19 46-37v-782c0-19-23-37-54-37z m-938 748v-637c0-17 8-26 24-26h875c16 0 24 9 24 26v637c0 18-8 27-24 27h-867c-16 9-32-9-32-27z m112-522l201 407c8 18 32 18 48 0l145-292c8-17 32-17 48 0l24 45c8 17 32 17 48 0l80-160c0-17-16-44-32-44h-538c-16 0-32 27-24 44z m610 204c-64 0-120 53-120 133 0 70 48 123 112 123 64 0 121-53 121-132 0-71-48-124-113-124z" horiz-adv-x="1231" />

<glyph glyph-name="typography" unicode="&#xe845;" d="M906 6h-65l-263 761c-3 6-7 11-12 15-5 4-12 6-18 6h-96c-6 0-13-2-18-6-5-4-9-9-11-15l-264-761h-65c-8 0-16-3-22-9-6-6-9-14-9-22v-31c0-9 3-17 9-22 6-6 14-10 22-10h250c8 0 16 4 22 10 6 5 9 13 9 22v31c0 8-3 16-9 22-6 6-14 9-22 9h-69l65 188h320l66-188h-70c-8 0-16-3-22-9-6-6-9-14-9-22v-31c0-9 3-17 9-22 6-6 14-10 22-10h250c9 0 17 4 22 10 6 5 10 13 10 22v31c0 8-4 16-10 22-5 6-13 9-22 9z m-534 282l128 368 128-368h-256z" horiz-adv-x="1000" />

<glyph glyph-name="slider" unicode="&#xe846;" d="M284 850h432c42 0 75 0 103-2 28-2 52-7 75-19 37-19 66-48 85-85 12-23 17-47 19-75 2-28 2-61 2-103v-432c0-42 0-75-2-102-2-28-7-53-19-76-19-37-48-66-85-85-23-12-47-17-75-19-28-2-61-2-103-2h-432c-42 0-75 0-102 2-28 2-53 7-76 19-37 19-66 48-85 85-12 23-16 48-19 76-2 27-2 60-2 102v432c0 42 0 75 2 103 3 28 7 52 19 75 19 37 48 66 85 85 23 12 48 17 76 19 27 2 60 2 102 2z m-96-82c-23-2-36-6-46-11-21-11-38-28-49-49-5-10-9-23-11-46-1-24-1-54-1-97v-430c0-43 0-73 1-97 2-23 6-36 11-46 11-21 28-38 49-49 10-5 23-9 46-11 24-2 54-2 97-2h430c43 0 73 0 97 2 23 2 36 6 46 11 21 11 38 28 49 49 5 10 9 23 11 46 2 24 2 54 2 97v430c0 43 0 73-2 97-2 23-6 36-11 46-11 21-28 38-49 49-10 5-23 9-46 11-24 2-54 2-97 2h-430c-43 0-73 0-97-2z m213-236c15-16 15-41 0-57l-125-125 125-125c15-15 15-41 0-57-16-15-41-15-57 0l-153 154c-16 15-16 41 0 56l153 154c16 15 41 15 57 0z m198 0c16 15 41 15 57 0l153-154c16-15 16-41 0-56l-153-154c-16-15-41-15-57 0-15 16-15 42 0 57l125 125-125 125c-15 16-15 41 0 57z" horiz-adv-x="1000" />

<glyph glyph-name="style" unicode="&#xe847;" d="M766-150h-532c-129 0-234 105-234 234v532c0 129 105 234 234 234h407c52-2 51-76 0-78h-407c-86 0-156-70-156-156v-532c0-86 70-156 156-156h532c86 0 156 70 156 156v362c2 52 76 52 78 0v-362c0-129-105-234-234-234z m-13 537l219 262 0 0c43 52 36 130-16 173-52 43-130 36-173-16l0-1-216-264c-13-17-11-42 6-55 17-14 41-11 55 5l215 265c16 19 44 21 63 6 19-16 21-44 6-63l-219-261c-14-17-12-42 5-55 7-7 16-10 25-10 11 0 22 5 30 14z m-422-383c-40 0-79 22-99 56-17 29-18 62-2 90 20 36 31 68 42 100 18 54 36 105 88 149 38 32 87 47 136 42 50-5 94-29 126-67 27-33 42-76 42-119 4-153-195-251-333-251z m147 360c-24 0-48-9-68-25-35-30-48-65-64-114-12-33-25-71-47-112-2-3-4-6 0-13 5-9 18-18 32-18 87 0 255 61 255 173 0 26-9 50-25 69-18 23-44 37-72 39-4 1-7 1-11 1z" horiz-adv-x="1000" />

<glyph glyph-name="image-1" unicode="&#xe84a;" d="M857 700h-714c-39 0-71-32-71-70v-560c0-38 32-70 71-70h714c39 0 71 32 71 70v560c0 38-32 70-71 70z m7-630c0-4-2-6-7-6h-714c-4 0-7 2-7 6v560c0 4 3 6 7 6h714c5 0 7-2 7-6v-560z m-469 218l-72 73-133-131v-104h620v192l-192 192-223-222z m-120 115c48 0 86 39 86 86 0 47-38 85-86 85-47 0-85-38-85-85 0-47 38-86 85-86z" horiz-adv-x="1000" />

<glyph glyph-name="products" unicode="&#xe84b;" d="M629 422c0 13-3 27-8 38-6 16-14 24-25 27-13 3-30-6-43-27-11-16-19-33-22-52-2-11-2-21-2-29 0-14 2-28 8-38 5-17 13-25 24-28 5 0 14 0 19 3 5 3 11 6 16 11 17 16 27 41 30 65 3 8 3 19 3 30z m0 0c0 13-3 27-8 38-6 16-14 24-25 27-13 3-30-6-43-27-11-16-19-33-22-52-2-11-2-21-2-29 0-14 2-28 8-38 5-17 13-25 24-28 5 0 14 0 19 3 5 3 11 6 16 11 17 16 27 41 30 65 3 8 3 19 3 30z m282 241h-819c-12 0-24-3-35-8-11-5-22-11-30-22-8-8-16-19-19-30-5-13-8-24-8-38v-325c0-13 3-24 8-38 6-10 11-21 19-32 9-9 19-16 30-22 11-5 23-8 35-8h388l176-103-41 103h293c24 0 49 11 65 30 16 19 27 43 27 68v325c0 27-11 51-27 68-16 21-38 32-62 32z m-496-425c0-11 0-19-6-28-2-4-5-7-8-10-3-3-7-5-11-6-5 0-13 0-19 3-5 3-11 5-13 11-44 51-76 114-90 181l-59-122c-25-48-44-73-63-73-10 0-21 8-29 30-22 57-44 163-68 323v16c0 5 3 8 5 13 8 3 11 6 17 8 5 3 8 3 13 3h14c5-3 8-3 10-5 4-3 7-7 9-11 2-6 2-8 2-14 14-89 27-165 41-225l89 177c3 5 6 13 11 16 6 5 11 8 19 8 19 0 30-11 33-35 8-49 21-98 38-147 10 109 29 187 54 236 3 6 5 11 11 14 5 2 11 5 16 5 8 0 19-3 24-8 4-3 6-7 8-11 3-4 4-9 3-13 0-9 0-14-5-22-22-49-35-100-41-152-3-54-5-108-5-162z m252 65c-8-19-22-36-38-46-16-11-35-17-57-19-8 0-14 0-22 2-13 3-27 8-38 17-11 8-21 19-27 32-13 27-22 54-22 84 0 43 11 84 33 119 8 19 22 36 38 46 16 17 35 22 57 22 8 0 13 0 22-3 13-2 27-8 37-16 11-8 22-19 28-32 13-25 21-55 21-84 0-44-11-84-32-122z m254 0c-8-19-21-36-37-46-17-11-36-17-57-19-17 0-36 5-49 13-14 8-27 22-38 38-14 27-22 54-22 84 0 43 11 84 33 119 24 44 57 65 95 65 8 0 13 0 21-2 14-3 27-8 38-17 11-8 22-19 27-32 14-25 22-54 22-84 0-41-11-81-33-119z m-67 184c-14 3-30-6-44-27-10-16-16-33-21-52-3-11-3-21-3-29 0-14 3-28 8-38 6-17 14-25 24-28 6 0 14 0 19 3 6 3 11 6 17 11 16 16 27 41 30 65 2 11 2 22 2 33 0 13-2 27-8 38-8 13-16 21-24 24z m-233-27c-6 16-14 24-25 27-13 3-30-6-43-27-11-16-19-33-22-52-2-11-2-21-2-29 0-14 2-28 8-38 5-17 13-25 24-28 5 0 14 0 19 3 5 3 11 6 16 11 17 16 27 41 30 65 3 11 3 22 3 33 0 12-3 24-8 35z" horiz-adv-x="1000" />

<glyph glyph-name="video" unicode="&#xe84e;" d="M500 700c-192 0-350-157-350-350 0-192 158-350 350-350 193 0 350 158 350 350 0 193-157 350-350 350z m0-625c-152 0-275 123-275 275 0 153 123 275 275 275 153 0 275-122 275-275 0-152-122-275-275-275z m145 308c25-15 25-50 0-65l-187-108c-25-15-55 3-55 33v217c0 30 30 48 55 33l187-108v-2z" horiz-adv-x="1000" />

<glyph glyph-name="post" unicode="&#xe84f;" d="M518 626l74 74 258-258-74-74c-22 14-47 20-72 17-25-2-49-14-67-31l-30-31c-38-38-43-95-15-138l-74-74-98 98-113-114c-18-17-138-110-155-93-17 17 76 138 93 155l113 113-98 99 75 73c42-28 100-23 138 15l30 31c38 37 43 95 15 138v0z" horiz-adv-x="1000" />

<glyph glyph-name="audio" unicode="&#xe850;" d="M395 228c-15 0-25-13-25-25v-53c0-15 13-25 25-25 13 0 25 13 25 25v53c0 15-12 25-25 25z m105 50c-15 0-25-13-25-25v-155c0-15 13-25 25-25 13 0 25 12 25 25v155c0 15-12 25-25 25z m78-78v-52c0-15 12-25 25-25 12 0 25 12 25 25v52c0 15-13 25-25 25-13 0-25-12-25-25z m-333 130c-42 0-77-35-77-77v-155c0-43 35-78 77-78 43 0 78 35 78 78v155c0 42-35 77-78 77z m15-227c0-8-7-15-15-15-7 0-15 7-15 15v142c0 8 8 15 15 15 8 0 15-7 15-15v-142z m495 227c-42 0-77-35-77-77v-155c0-43 35-78 77-78 43 0 78 35 78 78v155c0 42-35 77-78 77z m15-227c0-8-7-15-15-15-7 0-15 7-15 15v142c0 8 8 15 15 15 8 0 15-7 15-15v-142z m-10 282c-22-2-42 15-42 38 0 125-95 222-218 222-122 0-217-97-217-222 0-23-20-40-43-38-22 3-32 23-32 43 0 165 130 292 292 292 163 0 290-127 293-292 0-28-13-40-33-43z" horiz-adv-x="1000" />

<glyph glyph-name="external" unicode="&#xe852;" d="M278 5c-68 0-123 55-123 123v407c0 68 55 123 123 123h170c20 0 37-18 37-38 0-20-17-37-37-37h-170c-28 0-48-23-48-48v-405c0-27 23-47 48-47h405c27 0 47 22 47 47v170c0 20 18 38 38 38 20 0 37-18 37-38v-170c0-67-55-122-122-122h-405v-3z m227 313c-10 0-20 5-27 10-8 7-10 17-10 27 0 10 5 20 10 28l237 237h-90c-20 0-37 18-37 38 0 20 17 37 37 37h180c20 0 38-17 38-37v-180c0-20-18-38-38-38-20 0-37 18-37 38v90l-238-238c-7-7-17-10-27-10l2-2z" horiz-adv-x="1000" />

<glyph glyph-name="mix-content" unicode="&#xe853;" d="M123 0c-33 0-58 25-58 58v192c0 33 25 58 58 58h215c32 0 57-25 57-58v-192c0-33-25-58-57-58h-215z m0 263c-5 0-10-5-10-10v-193c0-5 5-10 10-10h215c5 0 10 5 10 10v193c0 5-5 10-10 10h-215z m755 45h-215c-33 0-58-25-58-58v-192c0-33 25-58 58-58h215c32 0 57 25 57 58v192c0 33-25 58-57 58z m10-250c0-5-5-10-10-10h-215c-5 0-10 5-10 10v192c0 5 5 10 10 10h215c5 0 10-5 10-10v-192z m-48 97c0-10-5-20-15-25l-77-45c-10-5-20-5-30 0-10 5-15 15-15 25v90c0 10 5 20 15 25 10 5 20 5 30 0l77-45c10-5 15-15 15-25z m-232 545h-215c-33 0-58-25-58-57v-193c0-32 25-57 58-57h215c32 0 57 25 57 57v193c0 32-25 57-57 57z m10-250c0-5-5-10-10-10h-215c-5 0-10 5-10 10v25 73 95c0 5 5 10 10 10h215c5 0 10-5 10-10v-170-23z m-453-285c-15 0-27 13-27 28 0 15 12 27 27 27h128c15 0 27-12 27-27 0-15-12-28-27-28h-128z m0-75c-15 0-27 13-27 28 0 15 12 27 27 27h50c15 0 28-12 28-27 0-15-13-28-28-28h-50z m335-10c-22 0-47 3-70 10-7 0-12 5-15 13-2 5-5 12-2 20 2 12 12 20 25 20 12 0 5 0 7 0 18-5 38-8 55-8 18 0 38 0 55 8 0 0 5 0 8 0 12 0 22-8 25-20 2-15-5-28-18-33-22-5-45-10-70-10z m243 245c-15 0-25 13-25 25 0 40-13 80-33 115-2 5-5 13-2 20 0 8 5 13 12 15 5 3 10 5 13 5 10 0 17-5 22-12 28-43 40-90 40-143 0-15-12-25-25-25h-2z m-485 0c-15 0-25 13-25 25 0 48 12 95 37 138 5 7 13 12 23 12 10 0 10 0 12-2 13-8 18-23 10-35-20-33-30-73-30-110 0-38-12-25-25-25l-2-3z m210 188l-23 22-40-37v-30h183v57l-58 58-65-65 3-5z m-35 35c15 0 25 10 25 25 0 15-13 25-25 25-13 0-25-10-25-25 0-15 12-25 25-25z" horiz-adv-x="1000" />

<glyph glyph-name="content" unicode="&#xe854;" d="M818 510v-272c0-13-10-23-23-23-12 0-22 10-22 23v272c0 13-10 23-23 23h-410c-12 0-22-10-22-23v-407c0-13 10-23 22-23h273c12 0 22-10 22-22 0-13-10-23-22-23h-273c-37 0-67 30-67 68v407c0 38 30 68 67 68h408c37 0 67-30 67-68h3z m0 0v-272c0-13-10-23-23-23-12 0-22 10-22 23v272c0 13-10 23-23 23h-410c-12 0-22-10-22-23v-407c0-13 10-23 22-23h273c12 0 22-10 22-22 0-13-10-23-22-23h-273c-37 0-67 30-67 68v407c0 38 30 68 67 68h408c37 0 67-30 67-68h3z m-605 33v-390c-38 0-68 30-68 67v410c0 38 30 68 68 68h407c38 0 68-30 68-68h-390c-48 0-88-40-88-87h3z m605-33v-272c0-13-10-23-23-23-12 0-22 10-22 23v272c0 13-10 23-23 23h-410c-12 0-22-10-22-23v-407c0-13 10-23 22-23h273c12 0 22-10 22-22 0-13-10-23-22-23h-273c-37 0-67 30-67 68v407c0 38 30 68 67 68h408c37 0 67-30 67-68h3z m-435-62c0 12 10 22 22 22h273c12 0 22-10 22-22 0-13-10-23-22-23h-273c-12 0-22 10-22 23z m0-93c0 13 10 23 22 23h273c12 0 22-10 22-23 0-12-10-22-22-22h-273c-12 0-22 10-22 22z m22-70c-12 0-22-10-22-22 0-13 10-23 22-23h123c12 0 22 10 22 23 0 12-10 22-22 22h-123z m0-95c-12 0-22-10-22-22 0-13 10-23 22-23h68c12 0 22 10 22 23 0 12-10 22-22 22h-68z m400-72l-115 115c0 0-2 0-5 2l-72 23c-5 0-10 0-13-3 0 0-2-5-2-7 0-3 0-3 0-5l22-73c0 0 0-2 3-5l115-115 67 65v3z m-55-78l68 68 30-30c15-15 12-43-8-60-17-18-45-23-60-8l-30 30z" horiz-adv-x="1000" />

<glyph glyph-name="title_&amp;_description" unicode="&#xe85f;" d="M863-56h-725c-75 0-138 62-138 137v538c0 75 63 137 138 137h725c75 0 137-62 137-137v-538c0-75-62-137-137-137z m-725 731c-32 0-57-25-57-56v-538c0-31 25-56 57-56h725c31 0 56 25 56 56v538c0 31-25 56-56 56h-725z m225-200c-32 0-50-19-50-50s18-50 50-50h281c25 0 50 19 50 50s-25 50-56 50h-275z m-107-175c-18 0-37-19-37-37 0-19 19-38 37-38h488c19 0 37 19 37 38 0 18-18 37-37 37h-488z" horiz-adv-x="1000" />

<glyph glyph-name="basic-1" unicode="&#xe86a;" d="M919-156h-838c-50 0-87 37-87 87v838c0 50 37 87 87 87h832c50 0 87-37 87-87v-825c0-25 0-50-19-69-12-19-37-31-62-31z m-6 925h-832v-838h832v838z m-138-188h-56c-19 44-69 75-119 75-50 0-100-31-119-75h-256c-31 0-56-25-56-56 0-31 25-56 56-56h256c19-50 63-81 119-81 56 0 100 31 119 75h56c31 0 56 25 56 56 0 31-25 62-56 62z m-550-462h56c19-44 69-75 119-75 50 0 100 31 119 75h256c31 0 56 25 56 56 0 31-25 56-56 56h-256c-19 50-63 82-119 82-56 0-100-32-119-82h-56c-31 0-56-25-56-56 0-31 25-56 56-56z" horiz-adv-x="1000" />

<glyph glyph-name="display" unicode="&#xe86b;" d="M957-150h-350c-28 0-43 21-43 43v350c0 28 22 43 43 43h350c29 0 43-22 43-43v-350c0-29-21-43-43-43z m-314 86h271v271h-271v-271z m-243-86h-357c-29 0-43 21-43 43v350c0 28 21 43 43 43h350c28 0 43-22 43-43v-350c0-29-22-43-43-43h7z m-314 86h271v271h-271v-271z m871 471h-350c-28 0-43 22-43 43v357c0 29 22 43 43 43h350c29 0 43-21 43-43v-350c0-28-21-43-43-43v-7z m-314 86h271v271h-271v-271z m-243-86h-357c-29 0-43 22-43 43v357c0 29 21 43 43 43h350c28 0 43-21 43-43v-350c0-28-22-43-43-43l7-7z m-314 86h271v271h-271v-271z" horiz-adv-x="1000" />

<glyph glyph-name="general-2" unicode="&#xe86c;" d="M469-131c-49 0-91 33-102 80l-8 29c-2 11-4 11-7 12-1 0-2 1-4 1-4 0-8-2-12-4l-25-15c-16-10-35-15-54-15-28 0-55 11-75 31l-44 44c-34 34-41 87-16 129l16 26c2 4 3 11 2 15-1 3-1 5-12 8l-29 7c-47 12-80 54-80 102v63c0 48 33 90 80 102l29 7c11 3 11 5 12 8 1 3 1 10-3 16l-15 25c-25 41-18 94 16 129l44 44c20 20 46 31 75 31 28 0 37-5 54-15l25-15c4-2 8-4 12-4 2 0 3 1 3 1 4 1 6 2 8 12l8 29c11 47 53 80 102 80h62c49 0 91-33 103-80l7-29c3-11 4-11 8-12 0 0 1-1 3-1 4 0 9 2 12 4l26 15c16 10 35 15 54 15 28 0 54-11 74-31l45-44c34-35 40-87 16-129l-16-25c-3-5-4-12-3-16 1-3 2-5 13-8l29-7c47-11 79-53 79-102v-63c0-48-32-90-79-102l-29-7c-11-3-12-5-13-8-1-3 0-10 3-15l16-26c25-41 18-94-16-128l-44-45c-20-20-47-31-75-31-28 0-38 5-54 15l-26 16c-3 2-7 3-11 3-5 0-3 0-4-1-3-1-5-1-8-12l-7-29c-12-47-54-80-102-80h-63l0 0z m-122 207c10 0 20-1 29-4 32-10 57-38 66-73l7-30c2-9 10-15 20-15h62c10 0 17 6 20 15l7 29c9 36 34 64 66 74 9 2 19 4 29 4 19 0 37-5 54-15l26-16c3-2 7-3 10-3 6 0 11 2 15 6l44 45c7 6 8 16 3 24l-15 26c-16 26-20 56-12 84 10 31 38 56 73 65l30 7c8 3 15 11 15 20v63c0 9-6 17-15 19l-29 7c-36 9-64 34-73 66-9 28-5 58 11 84l15 26c5 8 4 17-3 24l-44 44c-4 4-9 6-15 6-5 0-7-1-10-2l-26-16c-17-10-35-15-54-15-19 0-20 1-30 4-31 10-56 38-65 73l-7 29c-3 9-11 15-20 15h-63c-9 0-17-6-19-15l-7-29c-9-35-34-63-66-73-10-3-19-5-29-5-19 0-38 6-55 16l-26 15c-3 2-6 3-10 3-5 0-10-2-14-6l-44-44c-7-7-8-17-4-25l16-25c16-26 20-56 11-84-9-32-38-57-73-66l-29-7c-9-2-15-10-15-20v-62c0-10 6-17 15-20l29-7c35-9 63-34 73-66 9-28 5-57-11-84l-16-25c-4-8-3-18 4-25l44-44c4-4 9-6 14-6 6 0 7 1 10 3l26 15c17 10 36 16 55 16l0 0z m153 44c-61 0-119 24-163 67-43 44-67 102-67 163 0 26 4 52 13 77v0c6 17 23 28 40 28 18 0 10 0 15-2 22-8 33-33 25-55-5-15-8-32-8-48 0-39 15-75 42-103 27-27 64-42 103-42 80 0 145 65 145 145 0 80-65 146-145 146-16 0-32-3-48-9-1 0-2 0-3-1-4-1-8-2-12-2-19 0-35 12-41 30-3 11-2 22 3 33 5 9 14 17 24 20 25 9 51 14 77 14 127 0 231-104 231-231 0-127-104-230-231-230l0 0z" horiz-adv-x="1000" />

<glyph glyph-name="api-sett" unicode="&#xe884;" d="M420-133c-21 0-39 18-39 39v115c-16 5-33 12-49 21l-81-81c-8-8-18-12-28-12-10 0-20 4-27 12l-97 96c-15 15-15 40 0 55 0 0 81 81 81 81-8 16-15 33-21 50h-114c-22 0-39 17-39 39v136c0 22 17 39 39 39h114c6 17 13 34 21 50l-81 81c-15 15-15 40 0 55l97 97c7 7 17 11 27 11 10 0 20-4 28-11 0 0 80-81 81-81 16 8 33 15 49 20v115c0 21 18 39 39 39h148c22 0 39-18 39-39v-176h-77v137h-71v-105c0-19-12-34-30-38-29-7-57-19-83-35-6-4-14-6-21-6-10 0-20 4-27 11l-75 75-41-42 74-74c13-13 15-33 6-48-17-26-28-54-35-84-4-17-20-30-38-30h-105v-59h105c19 0 34-12 38-30 7-29 19-57 35-83 10-16 7-35-6-48l-74-75 41-41 75 74c7 7 17 11 27 11 11 0 15-2 21-6 26-16 54-27 83-34 18-4 31-20 31-38v-106h70v198c-10-2-20-2-30-2-115 0-209 94-209 209 0 116 94 210 209 210 116 0 39-17 39-39v-109c9-5 17-13 23-22h116v302c0 22 17 39 39 39h143c13 21 36 35 61 35 41 0 73-33 73-74 0-40-32-73-73-73-40 0-48 13-61 35h-104v-264h104c13 21 36 34 61 34 41 0 73-33 73-73 0-40-32-73-73-73-40 0-48 13-61 34h-104v-263h104c13 21 36 34 61 34 41 0 73-33 73-73 0-40-32-73-73-73-40 0-48 13-61 34h-143c-22 0-39 17-39 39v303h-116c-13-22-37-35-62-35-40 0-73 33-73 73 0 41 13 49 34 62v64c-55-17-92-68-92-126 0-58 59-132 131-132 73 0 36 4 53 11 5 2 10 4 16 4 5 0 15-2 21-7 11-7 18-19 18-32v-288c0-21-18-38-39-38h-148l-1-1z" horiz-adv-x="1000" />

<glyph glyph-name="code" unicode="&#xe885;" d="M293-142c-157 0-285 128-285 285v414c0 157 128 285 285 285h414c157 0 285-128 285-285v-414c0-157-128-285-285-285h-414z m0 902c-112 0-203-91-203-203v-414c0-112 91-203 203-203h414c112 0 203 91 203 203v414c0 112-91 203-203 203h-414z m104-600c-9 0-18 4-24 11l-155 154c-7 7-11 16-11 25 0 9 4 18 11 25l155 155c6 6 15 10 24 10 10 0 18-4 25-10 7-7 10-16 10-25 0-10-3-18-10-25l-130-130 130-130c7-6 10-15 10-25 0-9-3-18-10-24-7-7-15-11-25-11z m206 0c-10 0-18 4-25 11-7 6-10 15-10 24 0 10 3 19 10 25l130 130-130 130c-7 7-10 15-10 25 0 9 3 18 10 25 7 6 15 10 25 10 9 0 18-4 25-10l154-155c7-7 11-16 11-25 0-9-4-18-11-25l-154-154c-7-7-16-11-25-11z" horiz-adv-x="1000" />

<glyph glyph-name="advanced" unicode="&#xe886;" d="M842-144c-41 0-79 16-108 44l-203 203c-17 18-31 41-38 66l-72-72c10-66-12-132-59-179-39-40-92-61-147-61-32 0-62 6-90 20-12 5-20 16-22 28-2 13 2 26 11 35l62 62v25h-25l-62-62c-8-8-17-12-28-12-15 0-29 9-35 22-38 80-22 176 41 238 39 39 93 61 148 61 55 0 21-1 31-2l94 95-139 139-9-8c-7-8-17-12-27-12-11 0-27 7-34 19l-119 200c-10 16-7 35 5 48l81 80c7 7 17 11 27 11 10 0 14-2 20-5l200-120c11-7 18-17 19-29 1-12-3-24-11-32l-9-9 140-140 95 95c-10 66 11 132 58 179 40 40 92 61 148 61 56 0 62-7 90-20 11-6 20-16 22-29 2-12-2-25-11-34l-62-62v-25h25l62 62c7 8 17 12 28 12 15 0 28-9 35-23 38-79 21-175-41-237-39-39-93-61-148-61-55 0-21 0-31 2l-72-72c24-7 47-20 65-38l203-203c60-60 60-156 0-216-28-28-67-44-107-44h-1z m-254 406c-26-26-34-71-1-104l203-203c14-14 32-21 52-21 20 0 39 7 53 21 29 29 29 76 0 105l-203 203c-14 14-33 22-51 22-19 0-37-8-53-23h0z m-373-158c21 0 39-17 39-39v-80c0-10-5-20-12-27l-23-23c33 1 65 14 88 38 33 33 46 81 34 126-3 14 0 28 10 38l362 362c8 7 18 11 28 11 10 0 7 0 10-1 11-3 22-5 34-5 34 0 68 14 92 39 24 23 37 55 39 88l-24-23c-7-8-17-12-27-12h-80c-22 0-39 18-39 39v80c0 11 4 20 11 28l24 23c-34-1-65-15-89-38-33-33-46-82-34-127 4-13 0-28-10-37-12-13-356-356-362-362-7-8-17-12-27-12-11 0-7 1-10 2-11 3-23 4-34 4-35 0-69-14-93-38-23-23-37-55-38-88l23 23c8 7 17 11 28 11h80z m181 318l33 32-140 140-33-33 140-139z m-223 166l89 89-131 79-37-37 79-131z" horiz-adv-x="1000" />

<glyph glyph-name="key-01" unicode="&#xe887;" d="M992 534c-8 78-44 152-100 208-56 56-130 92-208 100-13 1-25 2-37 2-67 0-132-19-188-55-67-43-117-108-142-183-24-72-24-150 1-221l-295-294c-11-11-17-26-17-41v-143c0-14 5-26 15-36 10-10 22-15 36-15h143c15 0 29 6 40 16l36 36c12 11 18 27 18 43v47h39c18 0 36 8 49 21 13 13 20 30 20 48v39h47c17 0 32 7 44 18l42 43c36-12 74-18 112-18 38 0 74 6 109 17 75 25 140 76 183 142 43 67 62 147 53 225v1z m-120-189c-35-52-88-90-148-108-25-8-51-12-77-12-27 0-72 8-106 22-4 2-9 3-14 3-5 0-5-1-8-1-7-2-14-5-19-10l-56-56h-70c-13 0-24-5-33-14-9-9-14-21-14-33v-60h-61c-12 0-24-5-33-14-9-9-14-21-14-33v-70l-26-27h-111v111l307 307c5 5 9 12 10 20 2 7 1 15-2 22-24 57-28 122-10 183 18 60 57 112 109 147 45 31 97 47 151 47 55 0 18-1 26-2 63-6 122-33 166-77l0-1c45-44 72-103 78-165 6-63-10-126-44-178l-1-1z m-73 303c-23 23-53 36-86 36-32 0-62-13-85-36-23-22-35-53-35-85 0-32 12-63 35-85 23-23 53-36 85-36 33 0 63 13 86 36 23 23 35 53 35 85 0 32-12 63-35 85z m-54-117c-9-9-20-14-32-14-12 0-23 5-32 14-8 8-13 19-13 31 0 12 5 24 13 32 9 9 20 13 32 13h3c11 0 21-5 29-13 9-8 13-19 13-31 0-13-5-24-13-32l0 0z" horiz-adv-x="1000" />

<glyph glyph-name="shuttle_2285485-1" unicode="&#xe8bd;" d="M1030 775c-2 40-34 72-73 74-81 4-237 0-387-78-77-39-158-106-222-184-1 0-2-1-3-2l-146-12c-24-2-46-14-59-34l-100-151c-10-16-12-35-4-52 7-16 23-28 41-31l123-19c0-2-1-5-1-7-4-25 4-50 22-68l171-172c15-14 35-23 55-23 5 0 9 1 13 2 2 0 5 0 7 1l19-124c3-18 15-33 32-40 7-4 14-5 21-5 11 0 21 3 30 9l151 100c20 13 33 35 35 59l11 146c1 1 2 2 3 3 77 64 144 145 184 221 77 150 81 307 77 387z m-342-767l-145-96-19 120c61 18 122 47 179 86l-7-96c0-6-3-11-8-14z m-254 73l-172 172c-4 4-6 10-5 16 5 31 13 60 22 87l258-258c-33-12-62-19-87-23-6-1-12 1-16 6z m-230 434l95 7c-39-57-67-118-85-179l-121 19 96 144c3 5 9 8 15 9z m527-303c-47-40-93-68-135-89l-292 291c27 56 60 102 89 136 60 72 134 133 204 169 137 72 282 75 356 71 10 0 18-8 19-18 4-74 0-219-71-357-36-69-98-144-170-203z m-15 177c38 0 75 14 104 42 28 28 43 65 43 104 0 39-15 76-43 104-57 57-150 57-207 0-28-28-43-65-43-104 0-39 15-76 43-104 28-28 66-42 103-42z m-62 208c17 17 40 26 62 26 23 0 45-9 62-26 17-16 26-38 26-62 0-23-9-46-26-62-34-34-90-34-124 0-16 16-26 39-26 62 0 24 10 46 26 62z m-593-571c8 0 15 3 21 9l96 95c11 12 11 30 0 42-12 11-30 11-42 0l-96-96c-11-11-11-30 0-41 6-6 14-9 21-9z m204 58c-11 11-30 11-41 0l-184-184c-12-11-12-30 0-41 6-6 13-9 21-9 7 0 15 3 20 9l184 184c12 11 12 30 0 41z m46-88l-95-95c-12-12-12-30 0-42 6-6 13-8 20-8 8 0 15 2 21 8l96 96c11 11 11 30 0 41-12 12-30 12-42 0z" horiz-adv-x="1063" />

<glyph glyph-name="check-icon" unicode="&#xe8be;" d="M493-97c-12-12-27-18-43-18-17 0-32 6-44 18l-346 346c-36 36-36 94 0 130l44 43c36 36 94 36 130 0l216-216 583 584c36 36 94 36 130 0l43-44c36-35 36-94 0-129l-713-714z" horiz-adv-x="1267" />

<glyph glyph-name="wpcp-right-open" unicode="&#xf006;" d="M0 0q0 25 18 43l305 304-305 304q-18 18-18 44t18 43 44 18 43-18l390-391-390-391q-19-18-43-18t-44 18q-18 18-18 44z" horiz-adv-x="495.1" />

<glyph glyph-name="wpcp-left-open" unicode="&#xf007;" d="M0 353l391 391q18 18 43 18 24 0 43-18 18-18 18-44t-18-43l-304-304 304-305q18-17 18-43t-18-43q-18-18-43-18t-43 18z" horiz-adv-x="495.1" />

<glyph glyph-name="wpcp-angle-left" unicode="&#xf104;" d="M350 546q0-7-6-12l-219-220 219-219q6-6 6-13t-6-13l-28-28q-5-5-12-5t-13 5l-260 261q-6 5-6 12t6 13l260 260q5 6 13 6t12-6l28-28q6-5 6-13z" horiz-adv-x="357.1" />

<glyph glyph-name="wpcp-angle-right" unicode="&#xf105;" d="M332 314q0-7-5-12l-261-261q-5-5-12-5t-13 5l-28 28q-6 6-6 13t6 13l219 219-219 220q-6 5-6 12t6 13l28 28q5 6 13 6t12-6l261-260q5-5 5-13z" horiz-adv-x="357.1" />
</font>
</defs>
</svg>
